视觉DV论坛

 找回密码
 加入视觉DV
123下一页
返回列表
查看: 1436|回复: 21

2018央视跨年晚会 启航2018央视新年跨年晚会[CCTV 20171231 ][1080I/TS/39.3G]

[复制链接]
发表于 2018-1-1 12:07:40 | 显示全部楼层 |阅读模式
视觉DV论坛 音影像 摄像DV交流专业论坛(点击图片可以放大)
视觉DV论坛


版权:
以下资源,版权归属视觉DV论坛 与原作者 共同所有,严禁用于商业用途。

内容类型:   
文件格式:
文件大小:
资源介绍:在已曝光的晚会嘉宾名单中,众明星被分为四组代表将和观众一起“涨知识”。“国”的代表阵容包括张艺兴、孙杨、柯洁、任重、张国强、张译等青年偶像,作为在各自领域具有一定号召力的领航人,他们一直以身作则弘扬榜样力量,表达了年轻一代争强上进的积极态度,青年兴则国家兴,青年强则国强。

该文章《央视新年晚会启航2018公布名单 别开生面的元旦跨年晚会》来源于出国留学网,网址:https://www.liuxue86.com/a/3553343.html
 

 

视觉DV论坛

关键词:视觉,DV,会声会影,模板,视频素材,下载,MV,KTV,越剧,   
本资源详细介绍

另一组曝光的嘉宾则更是别有深意,“家”的代表阵容分别是沙溢胡可一家,陈建斌蒋勤勤,张丹峰洪欣,正是像他们一样的众多小家组成了我们的国家,有家才有国。紧接着曝光的嘉宾是方大同、杨宗纬、钟汉良、刘嘉玲,体现出了“国家情美”中最重要的“情”字。近年来,随着海峡两岸间的友好文化交流不断加深,人们对于团圆的渴望就越强烈,央视新年晚会更是要和世界各地的华人们共同度过新年这个重要的时刻,携手“启航2018”。最后曝光的一组艺人是黄婷婷、李沁、徐帆、秦海璐、吉克隽逸、徐帆、陈粒等,不同年龄的她们或活力四射、或端庄典雅、或温婉善良。“美”而不同,可谓是中国女性肖像缩影,在辞旧迎新的央视新年晚会现场,她们将带来精彩表演。

该文章《央视新年晚会启航2018公布名单 别开生面的元旦跨年晚会》来源于出国留学网,网址:https://www.liuxue86.com/a/3553343.html
本资源下载地址

下载地址:百度网盘或其他
[启航2018]开场歌曲《启航看中国》 表演:全体主持人
[启航2018]歌舞《小团圆》 演唱:上海丝芭女子组合
[启航2018]短片《启航看中国——港珠澳大桥》
[启航2018]《新的天地》 演唱:蔡国庆 讲述:刘晓东 胡双钱 杨长风
[启航2018]歌曲《东方之珠》 演唱:刘嘉玲(中国香港)
[启航2018]创意节目《光影空竹秀》 表演:野中葵(日本)
[启航2018]短片《启航看中国——洋山港》
[启航2018]《海知道》 演唱:曹芙嘉 讲述:高佑思 理查德·西尔斯 爱丽丝 张程
20171231 启航2018 央视新年晚会:张艺兴《我相信》(03:03)
[启航2018]歌曲《相亲相爱》 演唱:五洲唱响组合
[启航2018]戏曲《梨园新苗》 表演:空军蓝天幼儿艺术团
[启航2018]戏歌《梨花颂》 演唱:徐帆
[启航2018]歌曲《书香年华》 演唱:沙溢 胡可等
[启航2018]歌曲《如梦令》 演唱:秦海璐
[启航2018]歌曲《做自己的英雄》 演唱:任重 樊凡
[启航2018]短片《启航看中国——深圳》
[启航2018]钢琴协奏曲《春天的事故》 演奏:陈萨 中国交响乐团
[启航2018]相声《蓝天遐想》 表演:董建春 李丁
[启航2018]歌曲《倔强》 演唱:孙杨
[启航2018]《壮志在我胸》 演唱:方大同 讲述:孙杨 安娜 柯洁
[启航2018]短剧《两地书》 表演:陈荣超 杨玉仙
[启航2018]歌曲《歌谣》 演唱:李荣浩
[启航2018]歌曲《中华好儿孙》 演唱:钟汉良(中国香港)
[启航2018]歌曲《世上最可爱的歌儿》 演唱:大张伟
[启航2018]歌曲《热血燃》 演唱:大张伟
[启航2018]魔术《梦想启航》 表演:亦丰(Yif)
[启航2018]歌曲《情歌赛过春江水》 演唱:云朵 韩冰
[启航2018]短剧《一口熏肉大饼》 表演:张述明一家
[启航2018]歌曲《从前慢》 演唱:斯琴格日乐
[启航2018]歌曲《领航》 演唱:魏松 袁晨野
[启航2018]短片《启航看中国——凉山》
[启航2018]《不忘初心》 演唱:汪正正 王欢 讲述:阿吾木牛 黄小云等
[启航2018]歌曲《祖国之子》 演唱:吉克隽逸 曲比乌力 连轧妹妹
[启航2018]歌曲《当我在这里》 演唱:陈粒
[启航2018]歌舞《健康动起来》 演唱:扎西顿珠
[启航2018]短片《启航看中国——厦门》
[启航2018]百老汇经典音乐剧《泽西男孩》选段
[启航2018]《最好的未来》 演唱:李沁 讲述:蔡宝端 杨小梅等
[启航2018]歌曲《幸福小康》 演唱:陈思思
[启航2018]歌曲《我变了 我没变》 演唱:杨宗纬(中国台湾)
[启航2018]歌舞《感到幸福你就拍拍手》 演唱:凤凰传奇
[启航2018]相声《好好学习》 表演:高晓攀 刘钊
[启航2018]杂技《侠义——蹦床技巧》 表演:河南省杂技团
[启航2018]短片《启航看中国——朱日和》
[启航2018]《强军战歌》 演唱:王传越 张大伟 讲述:张乃刚 白龙 杨利伟等
[启航2018]歌曲《想把我唱给你听》 演唱:张丹峰 洪欣(中国香港)
[启航2018]歌曲《我站立的地方是中国》 演唱:张译
[启航2018]歌曲《当你老了》 演唱:陈建斌 蒋勤勤
[启航2018]歌曲《愿平安归于你》 演唱:徐千雅
[启航2018]歌曲《世界向东看》 演唱:金婷婷 张英席
[启航2018]歌曲《筑梦中国》 演唱:廖昌永 李菲菲
360截图20180101120530687.jpg 360截图20180101120539187.jpg
百度云网盘链接
https://pan.baidu.com/s/1qYQKq4G

链接: https://pan.baidu.com/s/1pL0xWNp 密码
游客,如果您要查看本帖隐藏内容请回复




20171231 启航2018央视新年跨年晚会 SNG 1080i.[0].ts
    Format : MPEG-TS
    File size : 39.3 GiB
    Duration : 4h 22mn
    Start time : UTC 2017-12-31 08:49:36
    Overall bit rate mode : Variable
    Overall bit rate : 21.5 Mbps
    Network name : TANDBERG
    Original network name : Astra Satellite Network 19,2'E
  Video #101
    ID : 101 (0x65)
    Menu ID : 1 (0x1)
    Format : AVC
    Format/Info : Advanced Video Codec
    Format profile : High@L4.1
    Format settings, CABAC : Yes
    Format settings, ReFrames : 4 frames
    Codec ID : 27
    Duration : 4h 22mn
    Bit rate : 19.9 Mbps
    Width : 1 920 pixels
    Height : 1 080 pixels
    Display aspect ratio : 16:9
    Frame rate : 25.000 fps
    Color space : YUV
    Chroma subsampling : 4:2:0
    Bit depth : 8 bits
    Scan type : Interlaced
    Scan order : Top Field First
    Bits/(Pixel*Frame) : 0.383
    Stream size : 36.4 GiB (93%)
    Color primaries : BT.709
    Transfer characteristics : BT.709
    Matrix coefficients : BT.709
  Audio #256
    ID : 256 (0x100)
    Menu ID : 1 (0x1)
    Format : MPEG Audio
    Format version : Version 1
    Format profile : Layer 2
    Codec ID : 4
    Duration : 4h 22mn
    Bit rate mode : Constant
    Bit rate : 256 Kbps
    Channel count : 2 channels
    Sampling rate : 48.0 KHz
    Compression mode : Lossy
    Delay relative to video : -14ms
    Stream size : 480 MiB (1%)
    Language : English
  Audio #257
    ID : 257 (0x101)
    Menu ID : 1 (0x1)
    Format : MPEG Audio
    Format version : Version 1
    Format profile : Layer 2
    Codec ID : 4
    Duration : 4h 22mn
    Bit rate mode : Constant
    Bit rate : 256 Kbps
    Channel count : 2 channels
    Sampling rate : 48.0 KHz
    Compression mode : Lossy
    Delay relative to video : -8ms
    Stream size : 480 MiB (1%)
    Language : English
  Menu #32
    ID : 32 (0x20)
    Menu ID : 1 (0x1)
    List : 101 (0x65) (AVC) / 256 (0x100) (MPEG Audio, English) / 257 (0x101) (MPEG Audio, English)
    Language :  / English / English
发表于 2018-1-1 12:17:38 | 显示全部楼层
谢谢分享,辛苦了!
回复 支持 反对

使用道具 举报

发表于 2018-1-1 12:25:49 | 显示全部楼层
谢谢楼主分享央视跨年晚会,2018新年快乐
回复 支持 反对

使用道具 举报

发表于 2018-1-1 12:29:19 | 显示全部楼层
感谢分享,元旦快乐!
回复 支持 反对

使用道具 举报

 成长值: 3435
发表于 2018-1-1 13:02:41 | 显示全部楼层
这是什么东东啊
回复 支持 反对

使用道具 举报

发表于 2018-1-1 14:22:51 | 显示全部楼层
我是来刷分的,嘿嘿
回复 支持 反对

使用道具 举报

发表于 2018-1-1 15:44:08 | 显示全部楼层
学习了,不错,太有道理了
回复 支持 反对

使用道具 举报

 成长值: 3435
发表于 2018-1-1 17:47:38 | 显示全部楼层
感谢朋友的分享,收下了
回复 支持 反对

使用道具 举报

发表于 2018-1-1 18:36:29 | 显示全部楼层
谢谢楼主分享央视跨年晚会,2018新年快乐
回复 支持 反对

使用道具 举报

发表于 2018-1-1 20:20:50 | 显示全部楼层
找到好贴不容易,我顶你了,谢了
回复 支持 反对

使用道具 举报

您需要登录后才可以回帖 登录 | 加入视觉DV

本版积分规则

Archiver|手机版|小黑屋|QQ:1059497922|视觉DV ( 浙ICP备15024729号 )

GMT+8, 2018-6-19 02:54 , Processed in 0.559352 second(s), 30 queries .

Powered by Discuz! X3.2

© 2001-2013 Comsenz Inc.

快速回复 返回顶部 返回列表