视觉DV论坛

 找回密码
 加入视觉DV


1234下一页
返回列表
查看: 1656|回复: 17

2018TVB万千星辉颁奖典礼+红毯秀+庆功宴[480/720P/3.53G]

[复制链接]
发表于 2019-1-4 10:27:06 | 显示全部楼层 |阅读模式
视觉DV论坛 音影像 摄像DV交流专业论坛(点击图片可以放大)
视觉DV论坛

  • 综艺名称: 2018TVB万千星辉颁奖典礼+红毯秀+庆功宴
    广告招租 视觉广告
  • 资源来源:
  • 素材格式: mp4
  • 素材大小:
  • 下载来源: 百度网盘 
  • 解压密码: 注册后可见
  • 捐助得视觉币 果 恶意灌水处罚规则 邀请码(暗号) 飞腾体育
    飞腾体育
    广告位招租 (图片或文字)
    QQ:


    视觉广告
    本资源详细介绍

    2018TVB万千星辉颁奖典礼+红毯秀+庆功宴
    日前,万千星辉颁奖典礼提名名单出炉。2018TVB万千星辉颁奖典礼将在12月16日在TVB电视城现场颁奖,一起去看下大家心目中视帝视后到底是谁?

    Complete name : 萬千星輝頒獎典禮720 2018-12-16.mp4

    Format : MPEG-4

    Format profile : Base Media / Version 2

    Codec ID : mp42 (mp42/isom/avc1)

    File size : 1.30 GiB

    Duration : 2 h 1 min

    Overall bit rate mode : Variable

    Overall bit rate : 1 534 kb/s

    Encoded date : UTC 2018-12-16 16:09:20

    Tagged date : UTC 2018-12-16 16:09:20

    Writing application : TMPGEnc Video Mastering Works 6 Version. 6.2.6.33



    Video

    ID : 2

    Format : AVC

    Format/Info : Advanced Video Codec

    Format profile : High@L3.1

    Format settings : CABAC / 5 Ref Frames

    Format settings, CABAC : Yes

    Format settings, ReFrames : 5 frames

    Codec ID : avc1

    Codec ID/Info : Advanced Video Coding

    Duration : 2 h 1 min

    Bit rate mode : Variable

    Bit rate : 1 400 kb/s

    Maximum bit rate : 18.4 Mb/s

    Width : 1 280 pixels

    Height : 720 pixels

    Display aspect ratio : 16:9

    Frame rate mode : Constant

    Frame rate : 25.000 FPS

    Standard : Component

    Color space : YUV

    Chroma subsampling : 4:2:0

    Bit depth : 8 bits

    Scan type : Progressive

    Bits/(Pixel*Frame) : 0.061

    Stream size : 1.19 GiB (92%)

    Writing library : x264 core 148


    Encoded date : UTC 2018-12-16 16:09:20

    Tagged date : UTC 2018-12-16 16:09:20

    Color range : Limited

    Color primaries : BT.709

    Transfer characteristics : BT.709

    Matrix coefficients : BT.709

    Codec configuration box : avcC



    Audio

    ID : 1

    Format : AAC LC

    Format/Info : Advanced Audio Codec Low Complexity

    Codec ID : mp4a-40-2

    Duration : 2 h 1 min

    Bit rate mode : Variable

    Bit rate : 125 kb/s

    Maximum bit rate : 576 kb/s

    Channel(s) : 2 channels

    Channel layout : L R

    Sampling rate : 48.0 kHz

    Frame rate : 46.875 FPS (1024 SPF)

    Compression mode : Lossy

    Stream size : 109 MiB (8%)

    Default : Yes

    Alternate group : 1

    Encoded date : UTC 2018-12-16 16:09:20

    Tagged date : UTC 2018-12-16 16:09:20
    2018TVB万千星辉颁奖典礼+红毯秀+庆功宴
    2018TVB万千星辉颁奖典礼+红毯秀+庆功宴
    本资源下载地址

    下载地址 广告位招租
    邀请暗号邀请 飞腾体育
    此资源是 ;需要视觉币或果或豆。VIP会员免费
    视觉DV论坛不储存、复制、传播任何文件。所有资源均为会员分享,失效不补.
    360截图20190104102405147.jpg
    360截图20190104102417739.jpg
    360截图20190104102426612.jpg
    360截图20190104102440387.jpg
    360截图20190104102447836.jpg


    游客,如果您要查看本帖隐藏内容请回复
    发表于 2019-1-4 11:00:32 | 显示全部楼层
    看帖回帖是美德!,我来支持视觉DV。
    回复 支持 反对

    使用道具 举报

    发表于 2019-1-4 14:23:36 | 显示全部楼层
    拿来学习一下
    回复 支持 反对

    使用道具 举报

    发表于 2019-1-4 15:50:58 | 显示全部楼层
    我看不错哦,谢谢
    回复 支持 反对

    使用道具 举报

    发表于 2019-1-4 16:32:30 | 显示全部楼层
    支持看下咯,下载一个。
    回复 支持 反对

    使用道具 举报

    您需要登录后才可以回帖 登录 | 加入视觉DV

    本版积分规则

    QQ|Archiver|手机版|小黑屋|视觉DV

    GMT+8, 2020-11-30 04:23 , Processed in 0.065060 second(s), 29 queries .

    Powered by Discuz! X3.2

    © 2001-2013 Comsenz Inc.

    快速回复 返回顶部 返回列表