视觉DV论坛

 找回密码
 加入视觉DV
广告招租 
【助力企业上云】性能级主机2-5折 
【商标注册服务】低至680元
12下一页
返回列表
查看: 1770|回复: 17

祝您愉快纪念黄家驹25周年演唱会[无台标无水印高清版][20180610]1080I/TS/19.3G]

[复制链接]
发表于 2018-9-16 07:52:42 | 显示全部楼层 |阅读模式
视觉DV论坛 音影像 摄像DV交流专业论坛(点击图片可以放大)
视觉DV论坛

祝您愉快纪念黄家驹25周年演唱会[网络][TS/ 19.3G][百度网盘 ]

  • 综艺名称: 祝您愉快纪念黄家驹25周年演唱会
    文字广告位招租 视觉广告
  • 资源来源: 网络
  • 素材格式: TS
  • 素材大小: 19.3G
  • 下载来源: 百度网盘 
  • 解压密码: 注册后可见
  • 捐助得视觉币 果 恶意灌水处罚规则 邀请码(暗号) 广告招租
    广告位招租 (图片或文字)
    QQ:1059497922


    视觉广告
     

     

    本资源详细介绍

    祝您愉快纪念黄家驹25周年演唱会
    “祝您愉快”纪念黄家驹25周年演唱会于今日正式开启预售,本次演唱会由黄家强发起举办,将在6月10日于北京工人体育馆举行,届时黄家强将邀请众多音乐人一起用歌声来缅怀黄家驹。
    祝您愉快纪念黄家驹25周年演唱会
    祝您愉快纪念黄家驹25周年演唱会
    祝您愉快纪念黄家驹25周年演唱会
    此资源是 ;需要视觉币或果或豆。VIP会员免费
    视觉DV论坛不储存、复制、传播任何文件。所有资源均为会员分享,失效不补。
    资源尾缀是PDF、DV200、MP41等格式,请修改为相应格式即可,如果是RAR、ZIP格式,或解压或修改后缀。
    本资源下载地址

    下载地址 广告位招租
    邀请暗号邀请 文字广告
    《祝您愉快》是黄家驹离开的第一年,黄家强为了怀念他而创作的一首歌曲。字里行间透露着他对哥哥的怀念和敬爱,也唱出了无数歌迷的心声。除此之外,官方发布的海报也是经过反复打磨才最终呈现在大家眼前——金色背景象征着曾经的难忘岁月,中间的身影则是以黄家驹现场照为原型,并在里面加入了不同时期深情演唱的场景。
    游客,如果您要查看本帖隐藏内容请回复

      在这场具有特别意义的演唱会上,很多黄家驹的生前好友及beyond乐队演唱会的工作人员都将参与到本次纪念活动中;而且演唱会现场,导演组特地会安排播放黄家驹生前未曾公布过的珍贵视频;当然本次演场会,所有曲目都将是黄家驹所创作的经典作品。


    Format                         : MPEG-TS
    File size                      : 19.3 GiB
    Duration                       : 2h 58mn
    Start time                     : UTC 1975-02-04 22:10:42
    End time                       : UTC 1975-02-05 01:08:50
    Overall bit rate mode          : Constant
    Overall bit rate               : 15.5 Mbps
    Network name                   : Ericsson

    Video
    ID                             : 33 (0x21)
    Menu ID                        : 1 (0x1)
    Format                         : AVC
    Format/Info                    : Advanced Video Codec
    Format profile                 : Main@L4
    Format settings, CABAC         : Yes
    Format settings, ReFrames      : 4 frames
    Codec ID                       : 27
    Duration                       : 2h 58mn
    Bit rate                       : 14.0 Mbps
    Width                          : 1 920 pixels
    Height                         : 1 080 pixels
    Display aspect ratio           : 16:9
    Frame rate                     : 25.000 fps
    Color space                    : YUV
    Chroma subsampling             : 4:2:0
    Bit depth                      : 8 bits
    Scan type                      : Interlaced
    Scan type, store method        : Separated fields
    Scan order                     : Top Field First
    Bits/(Pixel*Frame)             : 0.269
    Stream size                    : 17.4 GiB (90%)
    Color range                    : Limited
    Color primaries                : BT.709
    Transfer characteristics       : BT.709
    Matrix coefficients            : BT.709

    Audio #1
    ID                             : 34 (0x22)
    Menu ID                        : 1 (0x1)
    Format                         : MPEG Audio
    Format version                 : Version 1
    Format profile                 : Layer 2
    Codec ID                       : 3
    Duration                       : 2h 58mn
    Bit rate mode                  : Constant
    Bit rate                       : 384 Kbps
    Channel(s)                     : 2 channels
    Sampling rate                  : 48.0 KHz
    Compression mode               : Lossy
    Delay relative to video        : -142ms
    Stream size                    : 490 MiB (2%)
    Language                       : English

    Audio #2
    ID                             : 35 (0x23)
    Menu ID                        : 1 (0x1)
    Format                         : MPEG Audio
    Format version                 : Version 1
    Format profile                 : Layer 2
    Codec ID                       : 3
    Duration                       : 2h 58mn
    Bit rate mode                  : Constant
    Bit rate                       : 384 Kbps
    Channel(s)                     : 2 channels
    Sampling rate                  : 48.0 KHz
    Compression mode               : Lossy
    Delay relative to video        : -150ms
    Stream size                    : 490 MiB (2%)
    Language                       : English

    Menu
    ID                             : 32 (0x20)
    Menu ID                        : 1 (0x1)
    Duration                       : 2h 58mn
    List                           : 33 (0x21) (AVC) / 34 (0x22) (MPEG Audio, English) / 35 (0x23) (MPEG Audio, English)
    Language                       :  / English / English
    Service name                   : Service-1
    Service provider               : Service Provider
    Service type                   : digital television
    Maximum bit rate               : 200000000

    点评

    贵的离谱。  发表于 2019-1-25 17:20
    发表于 2018-9-16 08:05:09 | 显示全部楼层
    路过,学习下
    回复 支持 反对

    使用道具 举报

    发表于 2018-9-16 08:09:53 | 显示全部楼层
    我抢、我抢、我抢沙发~
    回复 支持 反对

    使用道具 举报

    发表于 2018-9-16 08:15:22 | 显示全部楼层
    不知该说些什么。。。。。。就是谢谢
    回复 支持 反对

    使用道具 举报

    发表于 2018-9-16 08:17:03 | 显示全部楼层
    谢谢分享,一直在等
    回复 支持 反对

    使用道具 举报

    发表于 2018-9-16 08:35:11 | 显示全部楼层
    帮帮顶顶!!
    回复 支持 反对

    使用道具 举报

    发表于 2018-9-16 08:46:29 | 显示全部楼层
    我是来刷分的,嘿嘿
    回复 支持 反对

    使用道具 举报

    发表于 2018-9-16 08:47:10 | 显示全部楼层
    感谢楼主,酬谢发布
    回复 支持 反对

    使用道具 举报

    发表于 2018-9-16 09:22:22 | 显示全部楼层
    好好 学习了 确实不错
    回复 支持 反对

    使用道具 举报

    发表于 2018-9-16 09:23:55 | 显示全部楼层
    作者辛苦了谢谢分享
    回复 支持 反对

    使用道具 举报

    您需要登录后才可以回帖 登录 | 加入视觉DV

    本版积分规则

    Archiver|手机版|小黑屋|QQ:1059497922|视觉DV ( 浙ICP备15024729号 )

    GMT+8, 2019-10-24 10:07 , Processed in 0.528057 second(s), 29 queries .

    Powered by Discuz! X3.2

    © 2001-2013 Comsenz Inc.

    快速回复 返回顶部 返回列表